自购原抓音乐圈:只有自购、合购、原抓级高解析(hires、sacd、dsd)正版音乐资源分享!【点我打开
极速无线网卡:千兆无线网卡、服务器网卡、USB接口台式机笔记本网卡 千兆网线 厂家批发价格最低!【点我打开
广告

[华语] 陈彼得 - 绝版合集4CD【无为资源库】FLAC+CUE

  [复制链接]
精华 KUAILE103395159 发表于 2021-2-20 22:52:13 | 显示全部楼层 |阅读模式 打印 上一主题 下一主题
【专辑简介(Albums)】
陈彼得 - 1981-也是情歌 (台黑胶版) [光美唱片]
陈彼得 - 1983-嫦娥 (飞跃复刻版) [光美唱片]
陈彼得 - 1988-归雁 (TP引进版) [上海音像]陈彼得 - 2018-忘年计画 (台首版) [iDO Music]
陈彼得 - 2018-忘年计画 (台首版) [iDO Music]
【官方图片(Picture)】
736426031207ca97cd.png 189396031208dba8e9.png


【文件信息(Files)】
专辑曲目:

01 .也是情歌
02. 夜行
03. 记得1981
04. 不管怎么说
05. 默许
06. 看一眼就喜欢
07. 今夜没有你
08. 阿里巴巴
09. 请你不要担心我
10. 夜走在小镇上

************************************************
        |          |          |        |        
    --------------------------------------------
      1 |  0:00.00 |  3:12.33 |      0 |  14432
      2 |  3:12.33 |  4:19.74 |  14433 |  33931
      3 |  7:32.32 |  4:15.09 |  33932 |  53065
      4 | 11:47.41 |  3:05.46 |  53066 |  66986
      5 | 14:53.12 |  3:21.46 |  66987 |  82107
      6 | 18:14.58 |  3:19.61 |  82108 |  97093
      7 | 21:34.44 |  4:04.37 |  97094 | 115430
      8 | 25:39.06 |  4:11.34 | 115431 | 134289
      9 | 29:50.40 |  3:24.32 | 134290 | 149621
     10 | 33:14.72 |  3:28.05 | 149622 | 165226
************************************************
专辑介绍:

    飞跃复刻,陈彼得的东西很多人找,但都是黑胶,终于有CD版了。

    流行音乐界最重要的舵手陈彼得,跨足演唱界最成功的专辑,陈彼得、陈欣怡父女经典对唱歌曲,呈现创作歌手最淋漓尽致的质感。


专辑曲目:

01. 嫦娥------陈彼得、陈欣怡
02. 让我再认识你
03. 司机摇滚
04. 痴情
05. 知音难寻
06. Words-----陈欣怡
07. 问
08. 旅路
09. 忘不了妳
10. 慕情
11. 离情
12. 旅路演奏曲

*********************************************
EAC 抓取日志文件从3. 二月 2007, 20:55 用于 CD
未知艺术家 / 未知标题

使用驱动器  :PLEXTOR CD-ROM PX-40TS   Adapter: 3  ID: 1
读取模式    :使用 C2,使用精确流,不禁用缓存的安全模式
读取偏移校正:646
读取 Lead-In 和 Lead-Out : 是

所用输出模式:Monkey's Audio Lossless Encoder v3.99 DLL
                     Fast Lossless Compression

其他选项    :
    用静音填充抓取中丢失偏移的采样 : 是
    去除首尾静音块 : 否
    Win NT 及 2000 本地 Win32 接口


范围状态及错误
已选择范围
     文件名 C:\Program Files\BitComet\Downloads\陳彼得-嫦娥\CDImage.ape

     峰值电平 100.0 %
     范围质量 100.0 %
     CRC ACDB9D8B
     复制成功

没有错误发生

状态报告结尾
********************************************


专辑曲目:

01 不一样
02 一段情
03 无言的结局
04 扬帆
05 歉意
06 归雁
07 嫦娥
08 几度夕阳红
09 迟到
10 小丑
11 结束
12 祖国

**********************************
专辑曲目:

01. 嘿!天黑
02. 时间啊时间
03. 想你了
04. 什么比较难
05. 老花眼
06. 慢眼泪
07. 忘年
08. 悼
09. ICE CREAM
10. 逃跑之约
11. IF You... (隐藏曲目-嘿!天黑)

*************************************************
Exact Audio Copy V0.99 prebeta 5 from 4. May 2009

EAC 抓取日志文件从18. 七月 2018, 15:10

未知艺术家 / 未知标题

使用驱动器  :TSSTcorpDVD+-RW TS-H653F   Adapter: 0  ID: 0

读取模式     : 保护
使用精确流   : 是
废除音频缓冲 : 否
使用 C2 指针 : 否

读取偏移校正                   : 6
读取 Lead-In 和 Lead-Out       : 否
用静音填充抓取中丢失偏移的采样 : 是
去除首尾静音块                 : 否
在 CRC 计算中使用了空样本      : 否
已用接口                       : Win NT 及 2000 本地 Win32 接口

所用输出格式   : 用户定义的编码器
已选比特率     : 768 kBit/s
质量           : 高
添加 ID3 标签  : 否
命令行压缩器   : D:\software\eac\Flac\flac.exe
附加命令行参数 : -6 -V -T "ARTIST=%a" -T "TITLE=%t" -T "ALBUM=%g" -T "DATE=%y" -T "TRACKNUMBER=%n" -T "GENRE=%m" -T "COMMENT=%e" %s -o %d


被抓轨 CD 的 TOC

     音轨 |   开始   |   长度   | 起始扇区 | 结尾扇区
    --------------------------------------------------
       1  |  0:00.00 |  4:00.69 |       0  |   18068  
       2  |  4:00.69 |  3:23.21 |   18069  |   33314  
       3  |  7:24.15 |  4:58.29 |   33315  |   55693  
       4  | 12:22.44 |  4:25.62 |   55694  |   75630  
       5  | 16:48.31 |  4:03.54 |   75631  |   93909  
       6  | 20:52.10 |  5:37.61 |   93910  |  119245  
       7  | 26:29.71 |  3:50.11 |  119246  |  136506  
       8  | 30:20.07 |  4:07.45 |  136507  |  155076  
       9  | 34:27.52 |  4:07.23 |  155077  |  173624  
      10  | 38:35.00 |  4:01.67 |  173625  |  191766  
      11  | 42:36.67 |  5:59.68 |  191767  |  218759  


范围状态及错误

已选择范围

     文件名 D:\sam\EAC\陈彼得 - 2018-忘年计画\未知艺术家 - 未知标题.wav

     峰值电平 100.0 %
     范围质量 100.0 %
     复制 CRC 867AB279
     复制成功

没有错误发生


AccurateRip 概要

音轨  1  数据库中未见
音轨  2  数据库中未见
音轨  3  数据库中未见
音轨  4  数据库中未见
音轨  5  数据库中未见
音轨  6  数据库中未见
音轨  7  数据库中未见
音轨  8  数据库中未见
音轨  9  数据库中未见
音轨 10  数据库中未见
音轨 11  数据库中未见

没有任何音轨出现在 AccurateRip 数据库中

状态报告结尾



【下载地址(Download)】


游客,如果您要查看本帖隐藏内容请回复



参与人数 2金币 +28 收起 理由
kanzhi + 8 纵横天地,心随我意
admin + 20 猫咪音乐网,因你而精彩

查看全部评分总评分 : 金币 +28

温馨提示

记得善用社区搜索功能,那里可能会有你想要的资源;论坛站内搜索

如果你有什么需要的资源可以去资源求档发帖,求助社区的网友,我们会在第一时间给你回复哦;资源求档

对于本社区网盘链接失效密码错误各种报错请在反馈板块反馈报错发帖,您的支持,是我们发展的最大动力;投诉建议

回复

使用道具 举报

精彩评论12

kanzhi 发表于 2021-2-21 14:37:10 | 显示全部楼层
支持啦,这么好的东西,也就只有你能发现。

温馨提示

记得善用社区搜索功能,那里可能会有你想要的资源;论坛站内搜索

如果你有什么需要的资源可以去资源求档发帖,求助社区的网友,我们会在第一时间给你回复哦;资源求档

对于本社区网盘链接失效密码错误各种报错请在反馈板块反馈报错发帖,您的支持,是我们发展的最大动力;投诉建议

回复 支持 反对

使用道具 举报

十五 发表于 2021-2-21 16:02:06 来自手机 | 显示全部楼层
这么好的东西,感谢分享

温馨提示

记得善用社区搜索功能,那里可能会有你想要的资源;论坛站内搜索

如果你有什么需要的资源可以去资源求档发帖,求助社区的网友,我们会在第一时间给你回复哦;资源求档

对于本社区网盘链接失效密码错误各种报错请在反馈板块反馈报错发帖,您的支持,是我们发展的最大动力;投诉建议

回复 支持 反对

使用道具 举报

Bearson 发表于 2021-2-21 19:40:07 | 显示全部楼层
这个确实是很难得的老碟了,非常感谢分享!

温馨提示

记得善用社区搜索功能,那里可能会有你想要的资源;论坛站内搜索

如果你有什么需要的资源可以去资源求档发帖,求助社区的网友,我们会在第一时间给你回复哦;资源求档

对于本社区网盘链接失效密码错误各种报错请在反馈板块反馈报错发帖,您的支持,是我们发展的最大动力;投诉建议

回复 支持 反对

使用道具 举报

Konami 发表于 2021-2-21 23:56:34 | 显示全部楼层
支持啦,这么好的东西,也就只有你能发现。

温馨提示

记得善用社区搜索功能,那里可能会有你想要的资源;论坛站内搜索

如果你有什么需要的资源可以去资源求档发帖,求助社区的网友,我们会在第一时间给你回复哦;资源求档

对于本社区网盘链接失效密码错误各种报错请在反馈板块反馈报错发帖,您的支持,是我们发展的最大动力;投诉建议

回复 支持 反对

使用道具 举报

莱恩 发表于 2021-2-22 08:56:57 | 显示全部楼层
确实是很难得,支持啦

温馨提示

记得善用社区搜索功能,那里可能会有你想要的资源;论坛站内搜索

如果你有什么需要的资源可以去资源求档发帖,求助社区的网友,我们会在第一时间给你回复哦;资源求档

对于本社区网盘链接失效密码错误各种报错请在反馈板块反馈报错发帖,您的支持,是我们发展的最大动力;投诉建议

回复 支持 反对

使用道具 举报

gobase 发表于 2021-2-23 08:12:37 | 显示全部楼层
很喜欢的资源,期待了很久。

温馨提示

记得善用社区搜索功能,那里可能会有你想要的资源;论坛站内搜索

如果你有什么需要的资源可以去资源求档发帖,求助社区的网友,我们会在第一时间给你回复哦;资源求档

对于本社区网盘链接失效密码错误各种报错请在反馈板块反馈报错发帖,您的支持,是我们发展的最大动力;投诉建议

回复 支持 反对

使用道具 举报

xuedaiba521 发表于 7 天前 | 显示全部楼层
没什么能描述我现在的心情,感谢感激!

温馨提示

记得善用社区搜索功能,那里可能会有你想要的资源;论坛站内搜索

如果你有什么需要的资源可以去资源求档发帖,求助社区的网友,我们会在第一时间给你回复哦;资源求档

对于本社区网盘链接失效密码错误各种报错请在反馈板块反馈报错发帖,您的支持,是我们发展的最大动力;投诉建议

回复 支持 反对

使用道具 举报

xuchuq 发表于 7 天前 | 显示全部楼层
感谢楼主分享。

温馨提示

记得善用社区搜索功能,那里可能会有你想要的资源;论坛站内搜索

如果你有什么需要的资源可以去资源求档发帖,求助社区的网友,我们会在第一时间给你回复哦;资源求档

对于本社区网盘链接失效密码错误各种报错请在反馈板块反馈报错发帖,您的支持,是我们发展的最大动力;投诉建议

回复 支持 反对

使用道具 举报

lianb123 发表于 6 天前 | 显示全部楼层
支持啦,这么好的东西,也就只有你能发现。

温馨提示

记得善用社区搜索功能,那里可能会有你想要的资源;论坛站内搜索

如果你有什么需要的资源可以去资源求档发帖,求助社区的网友,我们会在第一时间给你回复哦;资源求档

对于本社区网盘链接失效密码错误各种报错请在反馈板块反馈报错发帖,您的支持,是我们发展的最大动力;投诉建议

回复 支持 反对

使用道具 举报

您需要登录后才可以回帖 登录 | 立即注册 微信登录

本版积分规则

发布主题
阅读排行更多+
关闭

站长推荐上一条 /1 下一条

活动提示

活动通知:

赞助永久VIP会员,赠送扩容您的百度网盘到100TB空间+5000GB HIRES资源活动开启通知。

地址:https://www.maomicd.com/huodong/

我知道了
收藏帖子 返回列表 这是一个自定义按钮
音乐分享,音乐下载。
微信公众号
微信号:maomiyinyue
意见反馈:admin@maomicd.com

加入我们的官方QQ群和微信群

Powered by Discuz! X3.4 Archiver|手机版|小黑屋|猫咪音乐网 ( 苏ICP备20015413号 )|( 苏公网安备 32030502000272号) 繁體

JS of wanmeiff.com and vcpic.com Please keep this copyright information, respect of, thank you!JS of wanmeiff.com and vcpic.com Please keep this copyright information, respect of, thank you!

GMT+8, 2021-3-3 19:09